999
dxfrw 0.6.3
  0
SECTION
  2
HEADER
  9
$ACADVER
  1
AC1021
  9
$DWGCODEPAGE
  3
ANSI_1252
  9
$INSBASE
 10
0
 20
0
 30
0
  9
$EXTMIN
 10
-55.34962255153919
 20
-21.54772042824608
 30
0
  9
$EXTMAX
 10
30
 20
24.47585984259804
 30
0
  9
$LIMMIN
 10
0
 20
0
  9
$LIMMAX
 10
420
 20
297
  9
$ORTHOMODE
 70
    0
  9
$REGENMODE
 70
    1
  9
$FILLMODE
 70
    1
  9
$QTEXTMODE
 70
    0
  9
$MIRRTEXT
 70
    0
  9
$LTSCALE
 40
1
  9
$ATTMODE
 70
    0
  9
$TEXTSIZE
 40
2.5
  9
$TRACEWID
 40
15.68
  9
$TEXTSTYLE
  7
STANDARD
  9
$CLAYER
  8
0
  9
$CELTYPE
  6
BYLAYER
  9
$CECOLOR
 62
  256
  9
$CELTSCALE
 40
1
  9
$DISPSILH
 70
    0
  9
$DIMSCALE
 40
2.5
  9
$DIMASZ
 40
1
  9
$DIMEXO
 40
0.625
  9
$DIMDLI
 40
3.75
  9
$DIMRND
 40
0
  9
$DIMDLE
 40
0
  9
$DIMEXE
 40
1.25
  9
$DIMTP
 40
0
  9
$DIMTM
 40
0
  9
$DIMTXT
 40
0.8
  9
$DIMCEN
 40
2.5
  9
$DIMTSZ
 40
0
  9
$DIMTOL
 70
    0
  9
$DIMLIM
 70
    0
  9
$DIMTIH
 70
    0
  9
$DIMTOH
 70
    0
  9
$DIMSE1
 70
    0
  9
$DIMSE2
 70
    0
  9
$DIMTAD
 70
    1
  9
$DIMZIN
 70
    8
  9
$DIMBLK
  1

  9
$DIMASO
 70
    1
  9
$DIMSHO
 70
    1
  9
$DIMPOST
  1

  9
$DIMAPOST
  1

  9
$DIMALT
 70
    0
  9
$DIMALTD
 70
    3
  9
$DIMALTF
 40
0.03937
  9
$DIMLFAC
 40
1
  9
$DIMTOFL
 70
    1
  9
$DIMTVP
 40
0
  9
$DIMTIX
 70
    0
  9
$DIMSOXD
 70
    0
  9
$DIMSAH
 70
    0
  9
$DIMBLK1
  1

  9
$DIMBLK2
  1

  9
$DIMSTYLE
  2
STANDARD
  9
$DIMCLRD
 70
    0
  9
$DIMCLRE
 70
    0
  9
$DIMCLRT
 70
    0
  9
$DIMTFAC
 40
1
  9
$DIMGAP
 40
0.625
  9
$DIMJUST
 70
    0
  9
$DIMSD1
 70
    0
  9
$DIMSD2
 70
    0
  9
$DIMTOLJ
 70
    0
  9
$DIMTZIN
 70
    8
  9
$DIMALTZ
 70
    0
  9
$DIMALTTZ
 70
    0
  9
$DIMUPT
 70
    0
  9
$DIMDEC
 70
    2
  9
$DIMTDEC
 70
    2
  9
$DIMALTU
 70
    2
  9
$DIMALTTD
 70
    3
  9
$DIMTXSTY
  7
standard
  9
$DIMAUNIT
 70
    0
  9
$DIMADEC
 70
    0
  9
$DIMALTRND
 40
0
  9
$DIMAZIN
 70
    0
  9
$DIMDSEP
 70
   44
  9
$DIMATFIT
 70
    3
  9
$DIMFRAC
 70
    0
  9
$DIMLDRBLK
  1
STANDARD
  9
$DIMLUNIT
 70
    2
  9
$DIMLWD
 70
   -2
  9
$DIMLWE
 70
   -2
  9
$DIMTMOVE
 70
    0
  9
$DIMFXL
 40
1
  9
$DIMFXLON
 70
    0
  9
$DIMJOGANG
 40
0.7854
  9
$DIMTFILL
 70
    0
  9
$DIMTFILLCLR
 70
    0
  9
$DIMARCSYM
 70
    0
  9
$DIMLTYPE
  6

  9
$DIMLTEX1
  6

  9
$DIMLTEX2
  6

  9
$LUNITS
 70
    2
  9
$LUPREC
 70
    4
  9
$SKETCHINC
 40
1
  9
$FILLETRAD
 40
0
  9
$AUNITS
 70
    0
  9
$AUPREC
 70
    2
  9
$MENU
  1
.
  9
$ELEVATION
 40
0
  9
$PELEVATION
 40
0
  9
$THICKNESS
 40
0
  9
$LIMCHECK
 70
    0
  9
$CHAMFERA
 40
0
  9
$CHAMFERB
 40
0
  9
$CHAMFERC
 40
0
  9
$CHAMFERD
 40
0
  9
$SKPOLY
 70
    0
  9
$USRTIMER
 70
    1
  9
$ANGBASE
 50
0
  9
$ANGDIR
 70
    0
  9
$PDMODE
 70
   34
  9
$PDSIZE
 40
0
  9
$PLINEWID
 40
0
  9
$SPLFRAME
 70
    0
  9
$SPLINETYPE
 70
    2
  9
$SPLINESEGS
 70
    8
  9
$HANDSEED
  5
20000
  9
$SURFTAB1
 70
    6
  9
$SURFTAB2
 70
    6
  9
$SURFTYPE
 70
    6
  9
$SURFU
 70
    6
  9
$SURFV
 70
    6
  9
$UCSBASE
  2

  9
$UCSNAME
  2

  9
$UCSORG
 10
0
 20
0
 30
0
  9
$UCSXDIR
 10
1
 20
0
 30
0
  9
$UCSYDIR
 10
0
 20
1
 30
0
  9
$UCSORTHOREF
  2

  9
$UCSORTHOVIEW
 70
    0
  9
$UCSORGTOP
 10
0
 20
0
 30
0
  9
$UCSORGBOTTOM
 10
0
 20
0
 30
0
  9
$UCSORGLEFT
 10
0
 20
0
 30
0
  9
$UCSORGRIGHT
 10
0
 20
0
 30
0
  9
$UCSORGFRONT
 10
0
 20
0
 30
0
  9
$UCSORGBACK
 10
0
 20
0
 30
0
  9
$PUCSBASE
  2

  9
$PUCSNAME
  2

  9
$PUCSORG
 10
0
 20
0
 30
0
  9
$PUCSXDIR
 10
1
 20
0
 30
0
  9
$PUCSYDIR
 10
0
 20
1
 30
0
  9
$PUCSORTHOREF
  2

  9
$PUCSORTHOVIEW
 70
    0
  9
$PUCSORGTOP
 10
0
 20
0
 30
0
  9
$PUCSORGBOTTOM
 10
0
 20
0
 30
0
  9
$PUCSORGLEFT
 10
0
 20
0
 30
0
  9
$PUCSORGRIGHT
 10
0
 20
0
 30
0
  9
$PUCSORGFRONT
 10
0
 20
0
 30
0
  9
$PUCSORGBACK
 10
0
 20
0
 30
0
  9
$USERI1
 70
    0
  9
$USERI2
 70
    0
  9
$USERI3
 70
    0
  9
$USERI4
 70
    0
  9
$USERI5
 70
    0
  9
$USERR1
 40
0
  9
$USERR2
 40
0
  9
$USERR3
 40
0
  9
$USERR4
 40
0
  9
$USERR5
 40
0
  9
$WORLDVIEW
 70
    1
  9
$SHADEDGE
 70
    3
  9
$SHADEDIF
 70
   70
  9
$TILEMODE
 70
    1
  9
$MAXACTVP
 70
   64
  9
$PINSBASE
 10
104.4343502477372
 20
117.8022153243289
 30
0
  9
$PLIMCHECK
 70
    0
  9
$PEXTMIN
 10
0
 20
0
 30
0
  9
$PEXTMAX
 10
0
 20
0
 30
0
  9
$GRIDMODE
 70
    1
  9
$SNAPSTYLE
 70
    0
  9
$GRIDUNIT
 10
0
 20
0
  9
$PLIMMIN
 10
0
 20
0
  9
$PLIMMAX
 10
210
 20
297
  9
$UNITMODE
 70
    0
  9
$VISRETAIN
 70
    1
  9
$PLINEGEN
 70
    0
  9
$PSLTSCALE
 70
    1
  9
$TREEDEPTH
 70
 3020
  9
$CMLSTYLE
  2
Standard
  9
$CMLJUST
 70
    0
  9
$CMLSCALE
 40
20
  9
$PROXYGRAPHICS
 70
    1
  9
$MEASUREMENT
 70
    1
  9
$CELWEIGHT
370
   -1
  9
$ENDCAPS
280
    0
  9
$JOINSTYLE
280
    0
  9
$LWDISPLAY
290
    0
  9
$INSUNITS
 70
    4
  9
$HYPERLINKBASE
  1

  9
$STYLESHEET
  1

  9
$XEDIT
290
    1
  9
$CEPSNTYPE
380
    0
  9
$PSTYLEMODE
290
    1
  9
$EXTNAMES
290
    1
  9
$PSVPSCALE
 40
2.08942
  9
$OLESTARTUP
290
    0
  9
$SORTENTS
280
  127
  9
$INDEXCTL
280
    0
  9
$HIDETEXT
280
    1
  9
$XCLIPFRAME
290
    0
  9
$HALOGAP
280
    0
  9
$OBSCOLOR
 70
  257
  9
$OBSLTYPE
280
    0
  9
$INTERSECTIONDISPLAY
280
    0
  9
$INTERSECTIONCOLOR
 70
  257
  9
$DIMASSOC
280
    1
  9
$PROJECTNAME
  1

  9
$CAMERADISPLAY
290
    0
  9
$LENSLENGTH
 40
50
  9
$CAMERAHEIGHT
 40
0
  9
$STEPSPERSEC
 40
2
  9
$STEPSIZE
 40
50
  9
$3DDWFPREC
 40
2
  9
$PSOLWIDTH
 40
5
  9
$PSOLHEIGHT
 40
80
  9
$LOFTANG1
 40
1.570796326794897
  9
$LOFTANG2
 40
1.570796326794897
  9
$LOFTMAG1
 40
0
  9
$LOFTMAG2
 40
0
  9
$LOFTPARAM
 70
    7
  9
$LOFTNORMALS
280
    1
  9
$LATITUDE
 40
1
  9
$LONGITUDE
 40
1
  9
$NORTHDIRECTION
 40
0
  9
$TIMEZONE
 70
-8000
  9
$LIGHTGLYPHDISPLAY
280
    1
  9
$TILEMODELIGHTSYNCH
280
    1
  9
$SOLIDHIST
280
    1
  9
$SHOWHIST
280
    1
  9
$DWFFRAME
280
    2
  9
$DGNFRAME
280
    0
  9
$REALWORLDSCALE
290
    1
  9
$INTERFERECOLOR
 62
    1
  9
$CSHADOW
280
    0
  9
$SHADOWPLANELOCATION
 40
0
  0
ENDSEC
  0
SECTION
  2
CLASSES
  0
ENDSEC
  0
SECTION
  2
TABLES
  0
TABLE
  2
VPORT
  5
8
330
0
100
AcDbSymbolTable
 70
    1
  0
VPORT
  5
31
330
2
100
AcDbSymbolTableRecord
100
AcDbViewportTableRecord
  2
*ACTIVE
 70
    0
 10
0
 20
0
 11
1
 21
1
 12
25.78064730360916
 22
21.63732898695769
 13
0
 23
0
 14
10
 24
10
 15
10
 25
10
 16
0
 26
0
 36
1
 17
0
 27
0
 37
0
 40
83.64545182846818
 41
1.33276883996613
 42
50
 43
0
 44
0
 50
0
 51
0
 71
    0
 72
  100
 73
    1
 74
    3
 75
    0
 76
    1
 77
    0
 78
    0
281
    0
 65
    1
110
0
120
0
130
0
111
1
121
0
131
0
112
0
122
1
132
0
 79
    0
146
0
348
10020
 60
    7
 61
    5
292
1
282
    1
141
0
142
0
 63
  250
421
3358443
  0
ENDTAB
  0
TABLE
  2
LTYPE
  5
5
330
0
100
AcDbSymbolTable
 70
    4
  0
LTYPE
  5
14
330
5
100
AcDbSymbolTableRecord
100
AcDbLinetypeTableRecord
  2
ByBlock
 70
    0
  3

 72
   65
 73
    0
 40
0
  0
LTYPE
  5
15
330
5
100
AcDbSymbolTableRecord
100
AcDbLinetypeTableRecord
  2
ByLayer
 70
    0
  3

 72
   65
 73
    0
 40
0
  0
LTYPE
  5
16
330
5
100
AcDbSymbolTableRecord
100
AcDbLinetypeTableRecord
  2
Continuous
 70
    0
  3
Solid line
 72
   65
 73
    0
 40
0
  0
LTYPE
  5
32
330
5
100
AcDbSymbolTableRecord
100
AcDbLinetypeTableRecord
  2
DOT
 70
    0
  3
Dot . . . . . . . . . . . . . . . . . . . . . .
 72
   65
 73
    2
 40
6.35
 49
0
 74
    0
 49
-6.35
 74
    0
  0
LTYPE
  5
33
330
5
100
AcDbSymbolTableRecord
100
AcDbLinetypeTableRecord
  2
DOTTINY
 70
    0
  3
Dot (.15x) .....................................
 72
   65
 73
    2
 40
0.9525
 49
0
 74
    0
 49
-0.9525
 74
    0
  0
LTYPE
  5
34
330
5
100
AcDbSymbolTableRecord
100
AcDbLinetypeTableRecord
  2
DOT2
 70
    0
  3
Dot (.5x) .....................................
 72
   65
 73
    2
 40
3.175
 49
0
 74
    0
 49
-3.175
 74
    0
  0
LTYPE
  5
35
330
5
100
AcDbSymbolTableRecord
100
AcDbLinetypeTableRecord
  2
DOTX2
 70
    0
  3
Dot (2x) .  .  .  .  .  .  .  .  .  .  .  .  .
 72
   65
 73
    2
 40
12.7
 49
0
 74
    0
 49
-12.7
 74
    0
  0
LTYPE
  5
36
330
5
100
AcDbSymbolTableRecord
100
AcDbLinetypeTableRecord
  2
DASHED
 70
    0
  3
Dashed _ _ _ _ _ _ _ _ _ _ _ _ _ _ _ _ _
 72
   65
 73
    2
 40
19.05
 49
12.7
 74
    0
 49
-6.35
 74
    0
  0
LTYPE
  5
37
330
5
100
AcDbSymbolTableRecord
100
AcDbLinetypeTableRecord
  2
DASHEDTINY
 70
    0
  3
Dashed (.15x) _ _ _ _ _ _ _ _ _ _ _ _ _ _ _ _ _
 72
   65
 73
    2
 40
2.8575
 49
1.905
 74
    0
 49
-0.9525
 74
    0
  0
LTYPE
  5
38
330
5
100
AcDbSymbolTableRecord
100
AcDbLinetypeTableRecord
  2
DASHED2
 70
    0
  3
Dashed (.5x) _ _ _ _ _ _ _ _ _ _ _ _ _ _ _ _ _
 72
   65
 73
    2
 40
9.524999999999999
 49
6.35
 74
    0
 49
-3.175
 74
    0
  0
LTYPE
  5
39
330
5
100
AcDbSymbolTableRecord
100
AcDbLinetypeTableRecord
  2
DASHEDX2
 70
    0
  3
Dashed (2x) ____  ____  ____  ____  ____  ___
 72
   65
 73
    2
 40
38.09999999999999
 49
25.4
 74
    0
 49
-12.7
 74
    0
  0
LTYPE
  5
3A
330
5
100
AcDbSymbolTableRecord
100
AcDbLinetypeTableRecord
  2
DASHDOT
 70
    0
  3
Dash dot __ . __ . __ . __ . __ . __ . __ . __
 72
   65
 73
    4
 40
25.4
 49
12.7
 74
    0
 49
-6.35
 74
    0
 49
0
 74
    0
 49
-6.35
 74
    0
  0
LTYPE
  5
3B
330
5
100
AcDbSymbolTableRecord
100
AcDbLinetypeTableRecord
  2
DASHDOTTINY
 70
    0
  3
Dash dot (.15x) _._._._._._._._._._._._._._._.
 72
   65
 73
    4
 40
3.81
 49
1.905
 74
    0
 49
-0.9525
 74
    0
 49
0
 74
    0
 49
-0.9525
 74
    0
  0
LTYPE
  5
3C
330
5
100
AcDbSymbolTableRecord
100
AcDbLinetypeTableRecord
  2
DASHDOT2
 70
    0
  3
Dash dot (.5x) _._._._._._._._._._._._._._._.
 72
   65
 73
    4
 40
12.7
 49
6.35
 74
    0
 49
-3.175
 74
    0
 49
0
 74
    0
 49
-3.175
 74
    0
  0
LTYPE
  5
3D
330
5
100
AcDbSymbolTableRecord
100
AcDbLinetypeTableRecord
  2
DASHDOTX2
 70
    0
  3
Dash dot (2x) ____  .  ____  .  ____  .  ___
 72
   65
 73
    4
 40
50.8
 49
25.4
 74
    0
 49
-12.7
 74
    0
 49
0
 74
    0
 49
-12.7
 74
    0
  0
LTYPE
  5
3E
330
5
100
AcDbSymbolTableRecord
100
AcDbLinetypeTableRecord
  2
DIVIDE
 70
    0
  3
Divide ____ . . ____ . . ____ . . ____ . . ____
 72
   65
 73
    6
 40
31.75
 49
12.7
 74
    0
 49
-6.35
 74
    0
 49
0
 74
    0
 49
-6.35
 74
    0
 49
0
 74
    0
 49
-6.35
 74
    0
  0
LTYPE
  5
3F
330
5
100
AcDbSymbolTableRecord
100
AcDbLinetypeTableRecord
  2
DIVIDETINY
 70
    0
  3
Divide (.15x) __..__..__..__..__..__..__..__.._
 72
   65
 73
    6
 40
4.7625
 49
1.905
 74
    0
 49
-0.9525
 74
    0
 49
0
 74
    0
 49
-0.9525
 74
    0
 49
0
 74
    0
 49
-0.9525
 74
    0
  0
LTYPE
  5
40
330
5
100
AcDbSymbolTableRecord
100
AcDbLinetypeTableRecord
  2
DIVIDE2
 70
    0
  3
Divide (.5x) __..__..__..__..__..__..__..__.._
 72
   65
 73
    6
 40
15.875
 49
6.35
 74
    0
 49
-3.175
 74
    0
 49
0
 74
    0
 49
-3.175
 74
    0
 49
0
 74
    0
 49
-3.175
 74
    0
  0
LTYPE
  5
41
330
5
100
AcDbSymbolTableRecord
100
AcDbLinetypeTableRecord
  2
DIVIDEX2
 70
    0
  3
Divide (2x) ________  .  .  ________  .  .  _
 72
   65
 73
    6
 40
63.5
 49
25.4
 74
    0
 49
-12.7
 74
    0
 49
0
 74
    0
 49
-12.7
 74
    0
 49
0
 74
    0
 49
-12.7
 74
    0
  0
LTYPE
  5
42
330
5
100
AcDbSymbolTableRecord
100
AcDbLinetypeTableRecord
  2
BORDER
 70
    0
  3
Border __ __ . __ __ . __ __ . __ __ . __ __ .
 72
   65
 73
    6
 40
44.45
 49
12.7
 74
    0
 49
-6.35
 74
    0
 49
12.7
 74
    0
 49
-6.35
 74
    0
 49
0
 74
    0
 49
-6.35
 74
    0
  0
LTYPE
  5
43
330
5
100
AcDbSymbolTableRecord
100
AcDbLinetypeTableRecord
  2
BORDERTINY
 70
    0
  3
Border (.15x) __.__.__.__.__.__.__.__.__.__.__.
 72
   65
 73
    6
 40
6.6675
 49
1.905
 74
    0
 49
-0.9525
 74
    0
 49
1.905
 74
    0
 49
-0.9525
 74
    0
 49
0
 74
    0
 49
-0.9525
 74
    0
  0
LTYPE
  5
44
330
5
100
AcDbSymbolTableRecord
100
AcDbLinetypeTableRecord
  2
BORDER2
 70
    0
  3
Border (.5x) __.__.__.__.__.__.__.__.__.__.__.
 72
   65
 73
    6
 40
22.225
 49
6.35
 74
    0
 49
-3.175
 74
    0
 49
6.35
 74
    0
 49
-3.175
 74
    0
 49
0
 74
    0
 49
-3.175
 74
    0
  0
LTYPE
  5
45
330
5
100
AcDbSymbolTableRecord
100
AcDbLinetypeTableRecord
  2
BORDERX2
 70
    0
  3
Border (2x) ____  ____  .  ____  ____  .  ___
 72
   65
 73
    6
 40
88.89999999999999
 49
25.4
 74
    0
 49
-12.7
 74
    0
 49
25.4
 74
    0
 49
-12.7
 74
    0
 49
0
 74
    0
 49
-12.7
 74
    0
  0
LTYPE
  5
46
330
5
100
AcDbSymbolTableRecord
100
AcDbLinetypeTableRecord
  2
CENTER
 70
    0
  3
Center ____ _ ____ _ ____ _ ____ _ ____ _ ____
 72
   65
 73
    4
 40
50.8
 49
31.75
 74
    0
 49
-6.35
 74
    0
 49
6.35
 74
    0
 49
-6.35
 74
    0
  0
LTYPE
  5
47
330
5
100
AcDbSymbolTableRecord
100
AcDbLinetypeTableRecord
  2
CENTERTINY
 70
    0
  3
Center (.15x) ___ _ ___ _ ___ _ ___ _ ___ _ ___
 72
   65
 73
    4
 40
7.619999999999999
 49
4.7625
 74
    0
 49
-0.9525
 74
    0
 49
0.9525
 74
    0
 49
-0.9525
 74
    0
  0
LTYPE
  5
48
330
5
100
AcDbSymbolTableRecord
100
AcDbLinetypeTableRecord
  2
CENTER2
 70
    0
  3
Center (.5x) ___ _ ___ _ ___ _ ___ _ ___ _ ___
 72
   65
 73
    4
 40
28.575
 49
19.05
 74
    0
 49
-3.175
 74
    0
 49
3.175
 74
    0
 49
-3.175
 74
    0
  0
LTYPE
  5
49
330
5
100
AcDbSymbolTableRecord
100
AcDbLinetypeTableRecord
  2
CENTERX2
 70
    0
  3
Center (2x) ________  __  ________  __  _____
 72
   65
 73
    4
 40
101.6
 49
63.5
 74
    0
 49
-12.7
 74
    0
 49
12.7
 74
    0
 49
-12.7
 74
    0
  0
ENDTAB
  0
TABLE
  2
LAYER
  5
2
330
0
100
AcDbSymbolTable
 70
    1
  0
LAYER
  5
10
330
2
100
AcDbSymbolTableRecord
100
AcDbLayerTableRecord
  2
0
 70
    0
 62
    7
  6
CONTINUOUS
370
    0
390
F
  0
LAYER
  5
4A
330
2
100
AcDbSymbolTableRecord
100
AcDbLayerTableRecord
  2
côte
 70
    0
 62
    6
  6
DASHDOT2
370
    0
390
F
  0
ENDTAB
  0
TABLE
  2
STYLE
  5
3
330
0
100
AcDbSymbolTable
 70
    3
  0
STYLE
  5
4B
330
2
100
AcDbSymbolTableRecord
100
AcDbTextStyleTableRecord
  2
Standard
 70
    0
 40
0
 41
1
 50
0
 71
    0
 42
1
  3
txt
  4

  0
ENDTAB
  0
TABLE
  2
VIEW
  5
6
330
0
100
AcDbSymbolTable
 70
    0
  0
ENDTAB
  0
TABLE
  2
UCS
  5
7
330
0
100
AcDbSymbolTable
 70
    0
  0
ENDTAB
  0
TABLE
  2
APPID
  5
9
330
0
100
AcDbSymbolTable
 70
    1
  0
APPID
  5
12
330
9
100
AcDbSymbolTableRecord
100
AcDbRegAppTableRecord
  2
ACAD
 70
    0
  0
APPID
  5
4C
330
9
100
AcDbSymbolTableRecord
100
AcDbRegAppTableRecord
  2
LibreCad
 70
    0
  0
ENDTAB
  0
TABLE
  2
DIMSTYLE
  5
A
330
0
100
AcDbSymbolTable
 70
    1
100
AcDbDimStyleTable
 71
    1
  0
DIMSTYLE
105
4D
330
A
100
AcDbSymbolTableRecord
100
AcDbDimStyleTableRecord
  2
Standard
 70
    0
 40
2.5
 41
1
 42
0.625
 43
0.38
 44
1.25
 45
0
 46
0
 47
0
 48
0
 49
1
140
0.8
141
0.09
142
0
143
25.4
144
1
145
0
146
1
147
0.625
148
0
 71
    0
 72
    0
 73
    0
 74
    1
 75
    0
 76
    0
 77
    0
 78
    8
 79
    0
170
    0
171
    2
172
    0
173
    0
174
    0
175
    0
176
    0
177
    0
178
    0
179
    0
271
    2
272
    4
273
    2
274
    2
275
    0
276
    0
277
    2
278
   44
279
    0
280
    0
281
    0
282
    0
283
    1
284
    0
285
    0
286
    0
288
    0
289
    3
340
standard
341

371
   -2
372
   -2
  0
ENDTAB
  0
TABLE
  2
BLOCK_RECORD
  5
1
330
0
100
AcDbSymbolTable
 70
    2
  0
BLOCK_RECORD
  5
1F
330
1
100
AcDbSymbolTableRecord
100
AcDbBlockTableRecord
  2
*Model_Space
 70
    0
280
    1
281
    0
  0
BLOCK_RECORD
  5
1E
330
1
100
AcDbSymbolTableRecord
100
AcDbBlockTableRecord
  2
*Paper_Space
 70
    0
280
    1
281
    0
  0
BLOCK_RECORD
  5
4E
330
1
100
AcDbSymbolTableRecord
100
AcDbBlockTableRecord
  2
*D6
 70
    0
280
    1
281
    0
  0
BLOCK_RECORD
  5
51
330
1
100
AcDbSymbolTableRecord
100
AcDbBlockTableRecord
  2
*D2
 70
    0
280
    1
281
    0
  0
BLOCK_RECORD
  5
54
330
1
100
AcDbSymbolTableRecord
100
AcDbBlockTableRecord
  2
*D7
 70
    0
280
    1
281
    0
  0
BLOCK_RECORD
  5
57
330
1
100
AcDbSymbolTableRecord
100
AcDbBlockTableRecord
  2
*D9
 70
    0
280
    1
281
    0
  0
BLOCK_RECORD
  5
5A
330
1
100
AcDbSymbolTableRecord
100
AcDbBlockTableRecord
  2
*D5
 70
    0
280
    1
281
    0
  0
BLOCK_RECORD
  5
5D
330
1
100
AcDbSymbolTableRecord
100
AcDbBlockTableRecord
  2
*D8
 70
    0
280
    1
281
    0
  0
BLOCK_RECORD
  5
60
330
1
100
AcDbSymbolTableRecord
100
AcDbBlockTableRecord
  2
*D1
 70
    0
280
    1
281
    0
  0
BLOCK_RECORD
  5
63
330
1
100
AcDbSymbolTableRecord
100
AcDbBlockTableRecord
  2
*D3
 70
    0
280
    1
281
    0
  0
BLOCK_RECORD
  5
66
330
1
100
AcDbSymbolTableRecord
100
AcDbBlockTableRecord
  2
*D4
 70
    0
280
    1
281
    0
  0
ENDTAB
  0
ENDSEC
  0
SECTION
  2
BLOCKS
  0
BLOCK
  5
20
330
1F
100
AcDbEntity
  8
0
100
AcDbBlockBegin
  2
*Model_Space
 70
    0
 10
0
 20
0
 30
0
  3
*Model_Space
  1

  0
ENDBLK
  5
21
330
1F
100
AcDbEntity
  8
0
100
AcDbBlockEnd
  0
BLOCK
  5
1C
330
1B
100
AcDbEntity
  8
0
100
AcDbBlockBegin
  2
*Paper_Space
 70
    0
 10
0
 20
0
 30
0
  3
*Paper_Space
  1

  0
ENDBLK
  5
1D
330
1F
100
AcDbEntity
  8
0
100
AcDbBlockEnd
  0
BLOCK
  5
4F
330
4E
100
AcDbEntity
  8
0
100
AcDbBlockBegin
  2
*D6
 70
    1
 10
0
 20
0
  3
*D6
  1

  0
LINE
  5
69
100
AcDbEntity
  8
côte
  6
ByBlock
 62
    0
370
   -2
100
AcDbLine
 10
-36.36117115320837
 20
-15.97687823398549
 11
-36.36117115320837
 21
-3.941245824298809
  0
SOLID
  5
6A
100
AcDbEntity
  8
côte
  6
ByBlock
 62
    0
370
   -2
100
AcDbTrace
 10
-36.36117115320837
 20
-15.97687823398549
 30
0
 11
-36.77745581098121
 21
-13.47687823398549
 31
0
 12
-35.94488649543553
 22
-13.47687823398549
 32
0
 13
-35.94488649543553
 23
-13.47687823398549
 33
0
  0
SOLID
  5
6B
100
AcDbEntity
  8
côte
  6
ByBlock
 62
    0
370
   -2
100
AcDbTrace
 10
-36.36117115320837
 20
-3.941245824298809
 30
0
 11
-35.94488649543553
 21
-6.441245824298809
 31
0
 12
-36.77745581098121
 22
-6.441245824298809
 32
0
 13
-36.77745581098121
 23
-6.441245824298809
 33
0
  0
MTEXT
  5
6C
100
AcDbEntity
  8
côte
  6
CONTINUOUS
 62
    0
370
   -2
100
AcDbMText
 10
-38.92367115320837
 20
-9.959062029142149
 30
0
 40
2
 41
2
 71
    5
 72
    1
  1
12
  7
standard
210
0
220
0
230
1
 50
90
 73
    2
 44
1
  0
LINE
  5
6D
100
AcDbEntity
  8
côte
  6
ByBlock
 62
    0
370
   -2
100
AcDbLine
 10
-27.4560612757696
 20
-15.97687823398549
 11
-39.48617115320837
 21
-15.97687823398549
  0
LINE
  5
6E
100
AcDbEntity
  8
côte
  6
ByBlock
 62
    0
370
   -2
100
AcDbLine
 10
-30.0835584919688
 20
-3.941245824298809
 11
-39.48617115320837
 21
-3.941245824298808
  0
ENDBLK
  5
50
330
4E
100
AcDbEntity
  8
0
100
AcDbBlockEnd
  0
BLOCK
  5
52
330
51
100
AcDbEntity
  8
0
100
AcDbBlockBegin
  2
*D2
 70
    1
 10
0
 20
0
  3
*D2
  1

  0
LINE
  5
6F
100
AcDbEntity
  8
côte
  6
ByBlock
 62
    0
370
   -2
100
AcDbLine
 10
-9.396302487095944
 20
16.8978698590789
 11
9.58258237588424
 21
16.8978698590789
  0
SOLID
  5
70
100
AcDbEntity
  8
côte
  6
ByBlock
 62
    0
370
   -2
100
AcDbTrace
 10
-9.396302487095944
 20
16.8978698590789
 30
0
 11
-6.896302487095944
 21
17.31415451685174
 31
0
 12
-6.896302487095944
 22
16.48158520130606
 32
0
 13
-6.896302487095944
 23
16.48158520130606
 33
0
  0
SOLID
  5
71
100
AcDbEntity
  8
côte
  6
ByBlock
 62
    0
370
   -2
100
AcDbTrace
 10
9.58258237588424
 20
16.8978698590789
 30
0
 11
7.08258237588424
 21
16.48158520130606
 31
0
 12
7.08258237588424
 22
17.31415451685174
 32
0
 13
7.08258237588424
 23
17.31415451685174
 33
0
  0
MTEXT
  5
72
100
AcDbEntity
  8
côte
  6
CONTINUOUS
 62
    0
370
   -2
100
AcDbMText
 10
0.09313994439414941
 20
19.4603698590789
 30
0
 40
2
 41
2
 71
    5
 72
    1
  1
19
  7
standard
210
0
220
0
230
1
 50
0
 73
    2
 44
1
  0
LINE
  5
73
100
AcDbEntity
  8
côte
  6
ByBlock
 62
    0
370
   -2
100
AcDbLine
 10
-9.396302487095944
 20
16.50432880077732
 11
-9.396302487095944
 21
20.0228698590789
  0
LINE
  5
74
100
AcDbEntity
  8
côte
  6
ByBlock
 62
    0
370
   -2
100
AcDbLine
 10
9.58258237588424
 20
16.34573087713125
 11
9.58258237588424
 21
20.0228698590789
  0
ENDBLK
  5
53
330
51
100
AcDbEntity
  8
0
100
AcDbBlockEnd
  0
BLOCK
  5
55
330
54
100
AcDbEntity
  8
0
100
AcDbBlockBegin
  2
*D7
 70
    1
 10
0
 20
0
  3
*D7
  1

  0
LINE
  5
75
100
AcDbEntity
  8
côte
  6
ByBlock
 62
    0
370
   -2
100
AcDbLine
 10
-32.12327241740319
 20
-21.01925722134355
 11
-32.12327241740319
 21
-4.959062029142151
  0
SOLID
  5
76
100
AcDbEntity
  8
côte
  6
ByBlock
 62
    0
370
   -2
100
AcDbTrace
 10
-32.12327241740319
 20
-16.01925722134355
 30
0
 11
-31.70698775963035
 21
-18.51925722134355
 31
0
 12
-32.53955707517603
 22
-18.51925722134355
 32
0
 13
-32.53955707517603
 23
-18.51925722134355
 33
0
  0
SOLID
  5
77
100
AcDbEntity
  8
côte
  6
ByBlock
 62
    0
370
   -2
100
AcDbTrace
 10
-32.12327241740319
 20
-9.959062029142151
 30
0
 11
-32.53955707517603
 21
-7.459062029142151
 31
0
 12
-31.70698775963035
 22
-7.459062029142151
 32
0
 13
-31.70698775963035
 23
-7.459062029142151
 33
0
  0
MTEXT
  5
78
100
AcDbEntity
  8
côte
  6
CONTINUOUS
 62
    0
370
   -2
100
AcDbMText
 10
-34.68577241740319
 20
-12.98915962524285
 30
0
 40
2
 41
0.8888888888890127
 71
    5
 72
    1
  1
6
  7
standard
210
0
220
0
230
1
 50
90
 73
    2
 44
1
  0
LINE
  5
79
100
AcDbEntity
  8
côte
  6
ByBlock
 62
    0
370
   -2
100
AcDbLine
 10
-27.96460912406621
 20
-16.01925722134355
 11
-35.24827241740319
 21
-16.01925722134355
  0
LINE
  5
7A
100
AcDbEntity
  8
côte
  6
ByBlock
 62
    0
370
   -2
100
AcDbLine
 10
-30.29545342875906
 20
-9.959062029142151
 11
-35.24827241740319
 21
-9.959062029142151
  0
ENDBLK
  5
56
330
54
100
AcDbEntity
  8
0
100
AcDbBlockEnd
  0
BLOCK
  5
58
330
57
100
AcDbEntity
  8
0
100
AcDbBlockBegin
  2
*D9
 70
    1
 10
0
 20
0
  3
*D9
  1

  0
LINE
  5
7B
100
AcDbEntity
  8
côte
  6
ByBlock
 62
    0
370
   -2
100
AcDbLine
 10
-51.78712255153919
 20
-16.0616362087016
 11
-51.78712255153919
 21
15.00216152475031
  0
SOLID
  5
7C
100
AcDbEntity
  8
côte
  6
ByBlock
 62
    0
370
   -2
100
AcDbTrace
 10
-51.78712255153919
 20
-16.0616362087016
 30
0
 11
-52.20340720931203
 21
-13.5616362087016
 31
0
 12
-51.37083789376635
 22
-13.5616362087016
 32
0
 13
-51.37083789376635
 23
-13.5616362087016
 33
0
  0
SOLID
  5
7D
100
AcDbEntity
  8
côte
  6
ByBlock
 62
    0
370
   -2
100
AcDbTrace
 10
-51.78712255153919
 20
15.00216152475031
 30
0
 11
-51.37083789376635
 21
12.50216152475031
 31
0
 12
-52.20340720931203
 22
12.50216152475031
 32
0
 13
-52.20340720931203
 23
12.50216152475031
 33
0
  0
MTEXT
  5
7E
100
AcDbEntity
  8
côte
  6
CONTINUOUS
 62
    0
370
   -2
100
AcDbMText
 10
-54.34962255153919
 20
-0.5297373419756465
 30
0
 40
2
 41
2.000000000000124
 71
    5
 72
    1
  1
31
  7
standard
210
0
220
0
230
1
 50
90
 73
    2
 44
1
  0
LINE
  5
7F
100
AcDbEntity
  8
côte
  6
ByBlock
 62
    0
370
   -2
100
AcDbLine
 10
-24.9980800090026
 20
-16.0616362087016
 11
-54.91212255153919
 21
-16.0616362087016
  0
LINE
  5
80
100
AcDbEntity
  8
côte
  6
ByBlock
 62
    0
370
   -2
100
AcDbLine
 10
-25.50662785729921
 20
15.0021615247503
 11
-54.91212255153919
 21
15.00216152475031
  0
ENDBLK
  5
59
330
57
100
AcDbEntity
  8
0
100
AcDbBlockEnd
  0
BLOCK
  5
5B
330
5A
100
AcDbEntity
  8
0
100
AcDbBlockBegin
  2
*D5
 70
    1
 10
0
 20
0
  3
*D5
  1

  0
LINE
  5
81
100
AcDbEntity
  8
côte
  6
ByBlock
 62
    0
370
   -2
100
AcDbLine
 10
-40.68382786372964
 20
-16.01925722134354
 11
-40.68382786372964
 21
3.94124582429881
  0
SOLID
  5
82
100
AcDbEntity
  8
côte
  6
ByBlock
 62
    0
370
   -2
100
AcDbTrace
 10
-40.68382786372964
 20
-16.01925722134354
 30
0
 11
-41.10011252150248
 21
-13.51925722134354
 31
0
 12
-40.2675432059568
 22
-13.51925722134354
 32
0
 13
-40.2675432059568
 23
-13.51925722134354
 33
0
  0
SOLID
  5
83
100
AcDbEntity
  8
côte
  6
ByBlock
 62
    0
370
   -2
100
AcDbTrace
 10
-40.68382786372964
 20
3.94124582429881
 30
0
 11
-40.2675432059568
 21
1.44124582429881
 31
0
 12
-41.10011252150248
 22
1.44124582429881
 32
0
 13
-41.10011252150248
 23
1.44124582429881
 33
0
  0
MTEXT
  5
84
100
AcDbEntity
  8
côte
  6
CONTINUOUS
 62
    0
370
   -2
100
AcDbMText
 10
-43.24632786372964
 20
-6.039005698522367
 30
0
 40
2
 41
2.444444444444444
 71
    5
 72
    1
  1
20
  7
standard
210
0
220
0
230
1
 50
90
 73
    2
 44
1
  0
LINE
  5
85
100
AcDbEntity
  8
côte
  6
ByBlock
 62
    0
370
   -2
100
AcDbLine
 10
-24.36239519863182
 20
-16.01925722134355
 11
-43.80882786372964
 21
-16.01925722134354
  0
LINE
  5
86
100
AcDbEntity
  8
côte
  6
ByBlock
 62
    0
370
   -2
100
AcDbLine
 10
-29.78690558046244
 20
3.941245824298809
 11
-43.80882786372964
 21
3.94124582429881
  0
ENDBLK
  5
5C
330
5A
100
AcDbEntity
  8
0
100
AcDbBlockEnd
  0
BLOCK
  5
5E
330
5D
100
AcDbEntity
  8
0
100
AcDbBlockBegin
  2
*D8
 70
    1
 10
0
 20
0
  3
*D8
  1

  0
LINE
  5
87
100
AcDbEntity
  8
côte
  6
ByBlock
 62
    0
370
   -2
100
AcDbLine
 10
-46.32023318235052
 20
-16.01925722134355
 11
-46.32023318235052
 21
11.0609157004515
  0
SOLID
  5
88
100
AcDbEntity
  8
côte
  6
ByBlock
 62
    0
370
   -2
100
AcDbTrace
 10
-46.32023318235052
 20
-16.01925722134355
 30
0
 11
-46.73651784012336
 21
-13.51925722134355
 31
0
 12
-45.90394852457768
 22
-13.51925722134355
 32
0
 13
-45.90394852457768
 23
-13.51925722134355
 33
0
  0
SOLID
  5
89
100
AcDbEntity
  8
côte
  6
ByBlock
 62
    0
370
   -2
100
AcDbTrace
 10
-46.32023318235052
 20
11.0609157004515
 30
0
 11
-45.90394852457768
 21
8.560915700451497
 31
0
 12
-46.73651784012336
 22
8.560915700451497
 32
0
 13
-46.73651784012336
 23
8.560915700451497
 33
0
  0
MTEXT
  5
8A
100
AcDbEntity
  8
côte
  6
CONTINUOUS
 62
    0
370
   -2
100
AcDbMText
 10
-48.88273318235052
 20
-2.479170760446026
 30
0
 40
2
 41
2.444444444444444
 71
    5
 72
    1
  1
27
  7
standard
210
0
220
0
230
1
 50
90
 73
    2
 44
1
  0
LINE
  5
8B
100
AcDbEntity
  8
côte
  6
ByBlock
 62
    0
370
   -2
100
AcDbLine
 10
-25.33711190786701
 20
-16.01925722134355
 11
-49.44523318235052
 21
-16.01925722134355
  0
LINE
  5
8C
100
AcDbEntity
  8
côte
  6
ByBlock
 62
    0
370
   -2
100
AcDbLine
 10
-29.61738963103023
 20
11.0609157004515
 11
-49.44523318235052
 21
11.0609157004515
  0
ENDBLK
  5
5F
330
5D
100
AcDbEntity
  8
0
100
AcDbBlockEnd
  0
BLOCK
  5
61
330
60
100
AcDbEntity
  8
0
100
AcDbBlockBegin
  2
*D1
 70
    1
 10
0
 20
0
  3
*D1
  1

  0
LINE
  5
8D
100
AcDbEntity
  8
côte
  6
ByBlock
 62
    0
370
   -2
100
AcDbLine
 10
-19.65230154954206
 20
7.910654185801373
 11
-19.65230154954206
 21
-7.94913817880602
  0
SOLID
  5
8E
100
AcDbEntity
  8
côte
  6
ByBlock
 62
    0
370
   -2
100
AcDbTrace
 10
-19.65230154954206
 20
7.910654185801373
 30
0
 11
-19.23601689176922
 21
5.410654185801373
 31
0
 12
-20.0685862073149
 22
5.410654185801373
 32
0
 13
-20.0685862073149
 23
5.410654185801373
 33
0
  0
SOLID
  5
8F
100
AcDbEntity
  8
côte
  6
ByBlock
 62
    0
370
   -2
100
AcDbTrace
 10
-19.65230154954206
 20
-7.94913817880602
 30
0
 11
-20.0685862073149
 21
-5.44913817880602
 31
0
 12
-19.23601689176922
 22
-5.44913817880602
 32
0
 13
-19.23601689176922
 23
-5.44913817880602
 33
0
  0
MTEXT
  5
90
100
AcDbEntity
  8
côte
  6
CONTINUOUS
 62
    0
370
   -2
100
AcDbMText
 10
-22.21480154954206
 20
-0.01924199650232694
 30
0
 40
2
 41
2.000000000000124
 71
    5
 72
    1
  1
16
  7
standard
210
0
220
0
230
1
 50
90
 73
    2
 44
1
  0
LINE
  5
91
100
AcDbEntity
  8
côte
  6
ByBlock
 62
    0
370
   -2
100
AcDbLine
 10
-20.63327582950646
 20
7.910654185801373
 11
-22.77730154954206
 21
7.910654185801373
  0
LINE
  5
92
100
AcDbEntity
  8
côte
  6
ByBlock
 62
    0
370
   -2
100
AcDbLine
 10
-20.68614180405515
 20
-7.94913817880602
 11
-22.77730154954206
 21
-7.94913817880602
  0
ENDBLK
  5
62
330
60
100
AcDbEntity
  8
0
100
AcDbBlockEnd
  0
BLOCK
  5
64
330
63
100
AcDbEntity
  8
0
100
AcDbBlockBegin
  2
*D3
 70
    1
 10
0
 20
0
  3
*D3
  1

  0
SOLID
  5
93
100
AcDbEntity
  8
côte
  6
ByBlock
 62
    0
370
   -2
100
AcDbTrace
 10
3.359685500890119
 20
2.225729007289861
 30
0
 11
5.222703401864316
 21
3.944000585634433
 31
0
 12
5.678973247814691
 22
3.247588715499651
 32
0
 13
5.678973247814691
 23
3.247588715499651
 33
0
  0
LINE
  5
94
100
AcDbEntity
  8
côte
  6
ByBlock
 62
    0
370
   -2
100
AcDbLine
 10
0.01384098257110722
 20
0.03362397804637141
 11
8.471392403877504
 21
5.574778357522971
  0
MTEXT
  5
95
100
AcDbEntity
  8
côte
  6
CONTINUOUS
 62
    0
370
   -2
100
AcDbMText
 10
4.511221668024699
 20
6.043685326954531
 30
0
 40
2
 41
1.111111111111111
 71
    5
 72
    1
  1
4
  7
standard
210
0
220
0
230
1
 50
33.23171106797933
 73
    2
 44
1
  0
ENDBLK
  5
65
330
63
100
AcDbEntity
  8
0
100
AcDbBlockEnd
  0
BLOCK
  5
67
330
66
100
AcDbEntity
  8
0
100
AcDbBlockBegin
  2
*D4
 70
    1
 10
0
 20
0
  3
*D4
  1

  0
LINE
  5
96
100
AcDbEntity
  8
côte
  6
ByBlock
 62
    0
370
   -2
100
AcDbLine
 10
6.563773440467159
 20
8.003878440568563
 11
-6.536091475324932
 21
8.063369515524169
  0
SOLID
  5
97
100
AcDbEntity
  8
côte
  6
ByBlock
 62
    0
370
   -2
100
AcDbTrace
 10
1.563824999325139
 20
8.026584957727191
 30
0
 11
4.065689694841067
 21
8.431512064288409
 31
0
 12
4.06190874495123
 22
7.598951334007347
 32
0
 13
4.06190874495123
 23
7.598951334007347
 33
0
  0
SOLID
  5
98
100
AcDbEntity
  8
côte
  6
ByBlock
 62
    0
370
   -2
100
AcDbTrace
 10
-1.536143034182912
 20
8.040662998365541
 30
0
 11
-4.03800772969884
 21
7.635735891804324
 31
0
 12
-4.034226779809003
 22
8.468296622085386
 32
0
 13
-4.034226779809003
 23
8.468296622085386
 33
0
  0
MTEXT
  5
99
100
AcDbEntity
  8
côte
  6
CONTINUOUS
 62
    0
370
   -2
100
AcDbMText
 10
5.36014528440011
 20
10.57187096179657
 30
0
 40
2
 41
4.444444444444569
 71
    5
 72
    1
  1
3.14
  7
standard
210
0
220
0
230
1
 50
359.7398015855044
 73
    2
 44
1
  0
ENDBLK
  5
68
330
66
100
AcDbEntity
  8
0
100
AcDbBlockEnd
  0
ENDSEC
  0
SECTION
  2
ENTITIES
  0
CIRCLE
  5
9A
100
AcDbEntity
  8
côte
  6
ByLayer
 62
  256
370
   -1
100
AcDbCircle
 10
7.286983163056409
 20
-6.758649297944039
 40
0
  0
CIRCLE
  5
9B
100
AcDbEntity
  8
côte
  6
ByLayer
 62
  256
370
   -1
100
AcDbCircle
 10
10.65306549452068
 20
-10.48538330777948
 40
0
  0
CIRCLE
  5
9C
100
AcDbEntity
  8
côte
  6
ByLayer
 62
  256
370
   -1
100
AcDbCircle
 10
10.69276784140676
 20
-10.53957093169189
 40
0
  0
CIRCLE
  5
9D
100
AcDbEntity
  8
0
  6
ByLayer
 62
  256
370
   -1
100
AcDbCircle
 10
8.842458732202559
 20
-7.896272204257329
 40
0
  0
CIRCLE
  5
9E
100
AcDbEntity
  8
0
  6
ByLayer
 62
  256
370
   -1
100
AcDbCircle
 10
8.260933012166959
 20
-7.367612458770417
 40
0
  0
CIRCLE
  5
9F
100
AcDbEntity
  8
0
  6
ByLayer
 62
  256
370
   -1
100
AcDbCircle
 10
0.01384098257110722
 20
0.03362397804637141
 40
4
  0
DIMENSION
  5
A0
100
AcDbEntity
  8
côte
  6
ByLayer
 62
  256
370
   -1
100
AcDbDimension
  2
*D1
 10
-19.65230154954206
 20
-7.94913817880602
 30
0
 11
-22.21480154954206
 21
-0.01924199650232694
 31
0
 70
   32
  1
16
 71
    5
 72
    0
  3
Standard
 53
0
210
0
220
0
230
1
100
AcDbAlignedDimension
 13
-19.07077582950646
 23
7.910654185801373
 33
0
 14
-19.12364180405515
 24
-7.94913817880602
 34
0
 50
90
100
AcDbRotatedDimension
  0
DIMENSION
  5
A1
100
AcDbEntity
  8
côte
  6
ByLayer
 62
  256
370
   -1
100
AcDbDimension
  2
*D2
 10
9.58258237588424
 20
16.8978698590789
 30
0
 11
0.09313994439414941
 21
19.4603698590789
 31
0
 70
   32
  1
19
 71
    5
 72
    0
  3
Standard
 53
0
210
0
220
0
230
1
100
AcDbAlignedDimension
 13
-9.396302487095944
 23
14.94182880077732
 33
0
 14
9.58258237588424
 24
14.78323087713125
 34
0
100
AcDbRotatedDimension
  0
DIMENSION
  5
A2
100
AcDbEntity
  8
côte
  6
ByLayer
 62
  256
370
   -1
100
AcDbDimension
  2
*D3
 10
0.01384098257110722
 20
0.03362397804637141
 30
0
 11
4.511221668024699
 21
6.043685326954531
 31
0
 70
   36
 71
    5
 72
    0
  3
Standard
 53
0
210
0
220
0
230
1
100
AcDbRadialDimension
 15
3.359685500890119
 25
2.225729007289861
 35
0
 40
0
  0
CIRCLE
  5
A3
100
AcDbEntity
  8
0
  6
ByLayer
 62
  256
370
   -1
100
AcDbCircle
 10
0.01384098257110722
 20
8.033623978046371
 40
1.57
  0
CIRCLE
  5
A4
100
AcDbEntity
  8
0
  6
ByLayer
 62
  256
370
   -1
100
AcDbCircle
 10
9.513840982571107
 20
0.03362397804637141
 40
1.57
  0
CIRCLE
  5
A5
100
AcDbEntity
  8
0
  6
ByLayer
 62
  256
370
   -1
100
AcDbCircle
 10
0.01384098257110722
 20
-7.966376021953632
 40
1.57
  0
CIRCLE
  5
A6
100
AcDbEntity
  8
0
  6
ByLayer
 62
  256
370
   -1
100
AcDbCircle
 10
-9.486159017428889
 20
0.03362397804637141
 40
1.57
  0
DIMENSION
  5
A7
100
AcDbEntity
  8
côte
  6
ByLayer
 62
  256
370
   -1
100
AcDbDimension
  2
*D4
 10
1.563824999325139
 20
8.026584957727191
 30
0
 11
0.02547807261490931
 21
10.59609755413165
 31
0
 70
   35
  1
3.14
 71
    5
 72
    0
  3
Standard
 53
0
210
0
220
0
230
1
100
AcDbDiametricDimension
 15
-1.536143034182912
 25
8.040662998365541
 35
0
 40
0
  0
LINE
  5
A8
100
AcDbEntity
  8
côte
  6
DASHDOT2
 62
  256
370
   -1
100
AcDbLine
 10
-19.98615869211055
 20
-7.966379033773517
 11
20.01382130788945
 21
-7.966379033773517
  0
LINE
  5
A9
100
AcDbEntity
  8
côte
  6
DASHDOT2
 62
  256
370
   -1
100
AcDbLine
 10
-19.98615869211055
 20
8.033610966226483
 11
20.01382130788945
 21
8.033610966226483
  0
LINE
  5
AA
100
AcDbEntity
  8
côte
  6
DASHDOT2
 62
  256
370
   -1
100
AcDbLine
 10
-9.48615869211055
 20
20.03361096622648
 11
-9.48615869211055
 21
-19.96637903377352
  0
LINE
  5
AB
100
AcDbEntity
  8
côte
  6
DASHED2
 62
  256
370
   -1
100
AcDbLine
 10
9.513821307889447
 20
20.03361096622648
 11
9.513821307889447
 21
-19.96637903377352
  0
LINE
  5
AC
100
AcDbEntity
  8
côte
  6
ByLayer
 62
  256
370
   -1
100
AcDbLine
 10
0.06596840281349614
 20
24.47585984259804
 11
-0.01878957190260522
 21
-21.54772042824608
  0
LINE
  5
AD
100
AcDbEntity
  8
côte
  6
ByLayer
 62
  256
370
   -1
100
AcDbLine
 10
-18.02985919907456
 20
0.06556312436027056
 11
23.67106436124828
 21
-0.01919485035583079
  0
LWPOLYLINE
  5
AE
100
AcDbEntity
  8
0
  6
ByLayer
 62
  256
370
   -1
100
AcDbPolyline
 90
   12
 70
    0
 43
0
 10
0
 20
-16
 10
-27
 20
-16
 10
-27
 20
-10
 10
-30
 20
-10
 10
-30
 20
-4
 10
-27
 20
-4
 10
-27
 20
4
 10
-30
 20
4
 10
-30
 20
11
 10
-27
 20
11
 10
-27
 20
15
 10
0
 20
15
  0
LWPOLYLINE
  5
AF
100
AcDbEntity
  8
0
  6
ByLayer
 62
  256
370
   -1
100
AcDbPolyline
 90
   12
 70
    0
 43
0
 10
0
 20
-16
 10
27
 20
-16
 10
27
 20
-10
 10
30
 20
-10
 10
30
 20
-4
 10
27
 20
-4
 10
27
 20
4
 10
30
 20
4
 10
30
 20
11
 10
27
 20
11
 10
27
 20
15
 10
0
 20
15
  0
DIMENSION
  5
B0
100
AcDbEntity
  8
côte
  6
ByLayer
 62
  256
370
   -1
100
AcDbDimension
  2
*D5
 10
-40.68382786372964
 20
3.94124582429881
 30
0
 11
-43.24632786372964
 21
-6.039005698522367
 31
0
 70
   32
  1
20
 71
    5
  3
Standard
 53
0
210
0
220
0
230
1
100
AcDbAlignedDimension
 13
-22.79989519863182
 23
-16.01925722134355
 33
0
 14
-28.22440558046244
 24
3.941245824298809
 34
0
 50
90
100
AcDbRotatedDimension
  0
DIMENSION
  5
B1
100
AcDbEntity
  8
côte
  6
ByLayer
 62
  256
370
   -1
100
AcDbDimension
  2
*D6
 10
-36.36117115320837
 20
-3.941245824298808
 30
0
 11
-38.92367115320837
 21
-9.959062029142149
 31
0
 70
   32
  1
12
 71
    5
  3
Standard
 53
0
210
0
220
0
230
1
100
AcDbAlignedDimension
 13
-25.8935612757696
 23
-15.97687823398549
 33
0
 14
-28.5210584919688
 24
-3.941245824298809
 34
0
 50
90
100
AcDbRotatedDimension
  0
DIMENSION
  5
B2
100
AcDbEntity
  8
côte
  6
ByLayer
 62
  256
370
   -1
100
AcDbDimension
  2
*D7
 10
-32.12327241740319
 20
-9.959062029142151
 30
0
 11
-34.68577241740319
 21
-12.98915962524285
 31
0
 70
   32
  1
6
 71
    5
  3
Standard
 53
0
210
0
220
0
230
1
100
AcDbAlignedDimension
 13
-26.40210912406621
 23
-16.01925722134355
 33
0
 14
-28.73295342875906
 24
-9.959062029142151
 34
0
 50
90
100
AcDbRotatedDimension
  0
DIMENSION
  5
B3
100
AcDbEntity
  8
côte
  6
ByLayer
 62
  256
370
   -1
100
AcDbDimension
  2
*D8
 10
-46.32023318235052
 20
11.0609157004515
 30
0
 11
-48.88273318235052
 21
-2.479170760446026
 31
0
 70
   32
  1
27
 71
    5
  3
Standard
 53
0
210
0
220
0
230
1
100
AcDbAlignedDimension
 13
-23.77461190786701
 23
-16.01925722134355
 33
0
 14
-28.05488963103023
 24
11.0609157004515
 34
0
 50
90
100
AcDbRotatedDimension
  0
DIMENSION
  5
B4
100
AcDbEntity
  8
côte
  6
ByLayer
 62
  256
370
   -1
100
AcDbDimension
  2
*D9
 10
-51.78712255153919
 20
15.00216152475031
 30
0
 11
-54.34962255153919
 21
-0.5297373419756465
 31
0
 70
   32
  1
31
 71
    5
  3
Standard
 53
0
210
0
220
0
230
1
100
AcDbAlignedDimension
 13
-23.4355800090026
 23
-16.0616362087016
 33
0
 14
-23.94412785729921
 24
15.0021615247503
 34
0
 50
90
100
AcDbRotatedDimension
  0
ENDSEC
  0
SECTION
  2
OBJECTS
  0
DICTIONARY
  5
C
330
0
100
AcDbDictionary
281
    1
  3
ACAD_GROUP
350
D
  0
DICTIONARY
  5
D
330
C
100
AcDbDictionary
281
    1
  0
ENDSEC
  0
EOF
